...

本文来自

影视资源

时时彩走势图技巧:影视资源

时时彩历史记录 www.ei26o.com.cn 订阅|关注 (38)

本站提供720p|1080p|4K 等超高清分辨率电影电视剧免费下载。

精选帖子

16万

主题

16万

帖子

50万

积分

网站编辑

Rank: 8Rank: 8

积分
501151

[超清电影] 光荣七号 The.Glorious.Seven.2019.1080p.WEB-DL.DD5.1.H264-FGT 3.26GB

[复制链接]
跳转到指定楼层
楼主
1920 99mp4 发表于 2019-3-12 17:06:53


◎译  名 光荣七号
◎片  名 The Glorious Seven
◎年  代 2019
◎产  地 德国
◎类  别 动作
◎语  言 英语
◎IMDb评分 N/A
◎IMDb链接 https://www.imdb.com/title/tt3917254/
◎久久MP4整理 //899mp4.com/
◎片  长 1h 33min
◎导  演 Harald Franklin
◎编  剧 Jerry Kwarteng, Fernando Carrera, Maurice Nash
◎主  演 Jerry Kwarteng         ...        David Guerra
      Fernando Carrera         ...         Anthony Levin



◎简  介  

  Ex-military commander David Guerra is hired by shady millionaire Anthony Levin to rescue his wife Valentina who was kidnapped by Javier Martinez| leader of aguerrilla group.

Video
ID : 1
Format : AVC
Format/Info : Advanced Video Codec
Format profile : [email protected]
Format settings : CABAC / 5 Ref Frames
Format settings, CABAC : Yes
Format settings, ReFrames : 5 frames
Codec ID : V_MPEG4/ISO/AVC
Duration : 1 h 34 min
Bit rate : 4 570 kb/s
Width : 1 920 pixels
Height : 796 pixels
Display aspect ratio : 2.40:1
Frame rate mode : Constant
Frame rate : 23.976 FPS
Color space : YUV
Chroma subsampling : 4:2:0
Bit depth : 8 bits
Scan type : Progressive
Bits/(Pixel*Frame) : 0.125
Stream size : 3.01 GiB (92%)
Title : The.Glorious.Seven.2019.1080p.WEB-DL.DD5.1.H264-FGT
Language : English
Default : Yes
Forced : No
Color range : Limited
Color primaries : BT.709
Transfer characteristics : BT.709
Matrix coefficients : BT.709
Audio
ID : 2
Format : AC-3
Format/Info : Audio Coding 3
Commercial name : Dolby Digital
Codec ID : A_AC3
Duration : 1 h 34 min
Bit rate mode : Constant
Bit rate : 384 kb/s
Channel(s) : 6 channels
Channel layout : L R C LFE Ls Rs
Sampling rate : 48.0 kHz
Frame rate : 31.250 FPS (1536 SPF)
Bit depth : 16 bits
Compression mode : Lossy
Stream size : 259 MiB (8%)
Title : The.Glorious.Seven.2019.1080p.WEB-DL.DD5.1.H264-FGT
Language : English
Service kind : Complete Main
Default : Yes
Forced : No
Menu
00:00:00.000 : en:1
00:14:41.631 : en:2
00:25:55.304 : en:3
00:37:33.168 : en:4
00:49:12.950 : en:5
01:06:02.667 : en:6
01:16:21.451 : en:7
01:29:20.354 : en:8





下载地址:
光荣七号 The.Glorious.Seven.2019.1080p.WEB-DL.DD5.1.H264-FGT 3.26GB
您需要登录后才可以回帖 登录 | 立即注册

本版积分规则

快速回复 时时彩历史记录 返回列表
  • 事件 —频道 春城壹网 七彩云南 一网天下 2019-03-20
  • 董卿白岩松朱广权 看看央视主持人大学就读啥院系 2019-03-20
  • 摄艳|花开红树乱莺啼 白鹭相亲相爱嬉戏忙 2019-03-20
  • 做龙舟迎端午成博开展多样活动讲节日故事 2019-03-19
  • 习近平应约同俄罗斯总统普京通电话 2019-03-19
  • 永清万亩公园打造,升级空港都会生活 ——凤凰网房产北京 2019-03-18
  • 这三地网购官司占全国一半 90后买家更爱维权 2019-03-18
  • 载30吨发泡剂大货车高速路上起火 现场浓烟滚滚 2019-03-18
  • 2018年北京高考阅卷21万份 23日发布成绩 2019-03-18
  • 【专题】河北省无偿献血领导小组会议报道 2019-03-17
  • 黄山市今天将有一次大到暴雨 20日起梅雨到来 2019-03-17
  • 布小林--内蒙古频道--人民网 2019-03-17
  • 你们中了美国思维,中国思维却相反 2019-03-16
  • 新零售聚能创变 e栈多无人售货机获耀盛中国亿元融资 2019-03-16
  • 【学习时刻】参会专家盛小云:坚定文化自信,用高尚的作品引领社会风尚 2019-03-16
  • 232| 660| 696| 400| 60| 312| 911| 893| 477| 571|