本文来自

影视资源

时时彩信誉平台:影视资源

时时彩历史记录 www.ei26o.com.cn 订阅|关注 (40)

本站提供720p|1080p|4K 等超高清分辨率电影电视剧免费下载。

精选帖子

16万

主题

16万

帖子

50万

积分

网站编辑

Rank: 8Rank: 8

积分
505352

[超清电影] 即将远离 And.Then.I.Go.2017.1080p.AMZN.WEBRip.DDP5.1.x264-NTG 5.2GB

[复制链接]
跳转到指定楼层
楼主
1180 99mp4 发表于 2019-3-12 17:07:01


◎译  名 即将远离 / Project X
◎片  名 And Then I Go
◎年  代 2017
◎产  地 美国
◎类  别 剧情
◎语  言 英语
◎上映日期 2017-04-18(洛杉矶电影节) / 2018-04-18(美国)
◎IMDb评分 6.2/10 from 590 users
◎IMDb链接 //www.imdb.com/title/tt2018111
◎豆瓣评分 6.2/10 from 149 users
◎豆瓣链接 https://movie.douban.com/subject/30181823/
◎久久MP4整理 //899mp4.com/
◎片  长 99分钟
◎导  演 文森特·格拉肖 Vincent Grashaw
◎编  剧 布雷特·海利 Brett Haley / Jim Shepard
◎主  演 阿曼·达博 Arman Darbo
      索耶·巴斯 Sawyer Barth
      梅兰妮·林斯基 Melanie Lynskey
      贾斯汀·朗 Justin Long
      托尼·海尔 Tony Hale
      卡丽·普雷斯顿 Carrie Preston
      梅罗妮·迪亚兹 Melonie Diaz
      罗雅缇·海塔沃 Royalty Hightower
      迈克尔·阿伯特 Michael Abbott Jr.
      肖恩·布里吉格斯 Sean Bridgers
      Dallas Edwards
      Phebe Cox
      Kannon Hicks
      Hunter Trammell
      Steele Whitney



◎简  介  

  The Orchard打造的影片[即将远离](And Then I Go,暂译)曝光首款预告,影片由阿曼·达博、贾斯汀·朗、梅兰妮·林斯基等主演,文森特·格拉肖执导。影片根据小说《X项目》(Project X)改编。故事围绕男孩埃德温(阿曼·达博饰)和其伙伴罗兵(索耶·巴斯饰)学校生活展开。

Video
ID : 1
Format : AVC
Format/Info : Advanced Video Codec
Format profile : [email protected]
Format settings : CABAC / 4 Ref Frames
Format settings, CABAC : Yes
Format settings, ReFrames : 4 frames
Codec ID : V_MPEG4/ISO/AVC
Duration : 1 h 39 min
Bit rate mode : Constant
Bit rate : 6 872 kb/s
Nominal bit rate : 10 000 kb/s
Width : 1 920 pixels
Height : 800 pixels
Display aspect ratio : 2.40:1
Frame rate mode : Constant
Frame rate : 23.976 (24000/1001) FPS
Color space : YUV
Chroma subsampling : 4:2:0
Bit depth : 8 bits
Scan type : Progressive
Bits/(Pixel*Frame) : 0.187
Stream size : 4.76 GiB (91%)
Default : Yes
Forced : No
Color range : Limited
Color primaries : BT.709
Transfer characteristics : BT.709
Matrix coefficients : BT.709
Audio
ID : 2
Format : E-AC-3
Format/Info : Enhanced AC-3
Commercial name : Dolby Digital Plus
Codec ID : A_EAC3
Duration : 1 h 39 min
Bit rate mode : Constant
Bit rate : 640 kb/s
Channel(s) : 6 channels
Channel layout : L R C LFE Ls Rs
Sampling rate : 48.0 kHz
Frame rate : 31.250 FPS (1536 SPF)
Compression mode : Lossy
Stream size : 454 MiB (9%)
Language : English
Service kind : Complete Main
Default : Yes
Forced : No
Text #1
ID : 3
Format : UTF-8
Codec ID : S_TEXT/UTF8
Codec ID/Info : UTF-8 Plain Text
Duration : 1 h 30 min
Bit rate : 50 b/s
Count of elements : 1357
Stream size : 33.7 KiB (0%)
Language : English
Default : No
Forced : No
Text #2
ID : 4
Format : UTF-8
Codec ID : S_TEXT/UTF8
Codec ID/Info : UTF-8 Plain Text
Duration : 1 h 32 min
Bit rate : 56 b/s
Count of elements : 1542
Stream size : 38.3 KiB (0%)
Title : SDH
Language : English
Default : No
Forced : No





下载地址:
即将远离 And.Then.I.Go.2017.1080p.AMZN.WEBRip.DDP5.1.x264-NTG 5.2GB
您需要登录后才可以回帖 登录 | 立即注册

本版积分规则

快速回复 时时彩历史记录 返回列表
  • 浙江长兴大队开展取暖器“引火”实验 敲响冬季防火警钟 2019-05-20
  • 浙江省网络文明公益宣传创意作品展示 2019-05-20
  • 19种产品不再实施强制性产品认证 2019-05-20
  • 回复@艾鸣1:你看强坛除了小寻子这种跟你一样老蚕的人之外,有人会有人敢支持你么? 2019-05-20
  • 那你就写个帖子驳呀!告诉你,我是普通老百姓就是错了也没有啥,你可是论坛“真理化身”呀! 2019-05-19
  • 北欧的千湖之国被选为2018全球最幸福国家 2019-05-19
  • 一镜到底绝密视频!10个故事,一个不一样的上合峰会 2019-05-19
  • 饮料-热门标签-华商生活 2019-05-19
  • 吉安市落实企业上市挂牌工作调度会召开 2019-05-18
  • 购彩成习惯 体彩大乐透又领走一个14万 2019-05-18
  • 2018年中央和国家机关青年龙舟赛在京举行 2019-05-18
  • 毛泽东说帝国主义都是纸老虎。是有社会基础的 2019-05-17
  • 医院每天“抢劫”病人几十万,这样的疯狂行为睡来遏制? 2019-05-17
  • 医者佛心 第二届海峡两岸佛医论坛 2019-05-17
  • ST海润逾期债务累计近27亿 高管大调整后集体降薪为保壳 2019-05-16
  • 418| 749| 270| 221| 182| 842| 891| 855| 178| 320|