...

本文来自

影视资源

2017我被时时彩害死了:影视资源

时时彩历史记录 www.ei26o.com.cn 订阅|关注 (38)

本站提供720p|1080p|4K 等超高清分辨率电影电视剧免费下载。

精选帖子

16万

主题

16万

帖子

50万

积分

网站编辑

Rank: 8Rank: 8

积分
501151

[超清电影] 副总统/为副不仁 Vice.2018.1080p.WEB-DL.DD5.1.H264-FGT 4.61GB

[复制链接]
跳转到指定楼层
楼主
1300 99mp4 发表于 2019-3-12 17:07:15



◎译  名 副总统 / Backseat / Cheney / 为副不仁(港) / 位居次席
◎片  名 Vice
◎年  代 2018
◎产  地 美国
◎类  别 剧情 / 喜剧 / 传记 / 历史
◎语  言 英语
◎上映日期 2018-12-25(美国)
◎IMDb评分 7.2/10 from 44475 users
◎IMDb链接 //www.imdb.com/title/tt6266538
◎豆瓣评分 6.7/10 from 4960 users
◎豆瓣链接 https://movie.douban.com/subject/26920842/
◎久久MP4整理 //899mp4.com/
◎片  长 132分钟
◎导  演 亚当·麦凯 Adam McKay
◎编  剧 亚当·麦凯 Adam McKay
◎主  演 克里斯蒂安·贝尔 Christian Bale
      艾米·亚当斯 Amy Adams
      史蒂夫·卡瑞尔 Steve Carell
      山姆·洛克威尔 Sam Rockwell
      娜奥米·沃茨 Naomi Watts
      艾丽森·皮尔 Alison Pill
      埃迪·马森 Eddie Marsan
      贾斯汀·柯克 Justin Kirk
      丽莎·盖伊·汉密尔顿 Lisa Gay Hamilton
      杰西·普莱蒙 Jesse Plemons
      比尔·坎普 Bill Camp
      唐·麦克马纳斯 Don McManus
      莉莉·拉贝 Lily Rabe
      谢伊·惠格姆 Shea Whigham
      斯蒂芬·阿德利·葛尔盖 Stephen Adly Guirgis
      泰勒·派瑞 Tyler Perry
      杰夫·博斯利 Jeff Bosley
      吉利安·阿美娜特 Jillian Armenante
      马修·雅各布斯 Matthew Jacobs



◎简  介  

  曾拍《大空头》(The Big Short)聚焦美国次贷?;牡佳菅堑薄ぢ蹩ˋdam McKay)日前与派拉蒙签约,将导演一部讲述美国前副总统迪克·切尼(Dick Cheney)故事的传记片。而布拉德·皮特的“B计划”制片公司也将继《点球成金》、《大空头》后再次与迈凯合作,制作这部电影。
迪克·切尼号称是美国历史上最有权势的副总统,他也是现任美国副总统彭斯(Mike Pence)的效仿对象。布什当政八年时间里,表面上切尼是美国的二号人物,但实际上小布什总统(George W. Bush)的很多决定,包括阿富汗战争、入侵伊拉克等都是由他定夺的。
切尼本人是一个充满争议的矛盾体。他一直都是保守党派,曾为尼克松、福特、老布什政府做过幕僚,后进入哈利伯顿公司当了几年CEO,然后和小布什一起入主白宫;但他对于同性恋婚姻却持支持态度,因为他的女儿是一名女同性恋。此外,切尼五次拖延不愿去越战战场,却是个不折不扣的主战鹰派。
亚当·迈凯说:“我一直觉得切尼是个有意思的人物,很想搞清楚究竟是什么在驱动他、他到底信仰什么。所以我们就做了深挖调查,结果令人震惊,切尼堪称是美国现代史上最有权力的政治人物,他在很大程度上塑造了美国现在的国际地位,而他为了攫取权力所采取的方式也令人瞠目结舌?!?br /> 亚当·迈凯希望能在2017年春拍摄本片,并在年底上映。目前他正在物色合适的演员人选。
亚当·迈凯拍摄《切尼传》,意味着他之前接手的《坏血》(Bad Blood)项目要往后推迟了。

◎获奖情况  

  第91届奥斯卡金像奖(2019)
  最佳影片(提名)
  最佳导演(提名) 亚当·麦凯
  最佳男主角(提名) 克里斯蒂安·贝尔
  最佳男配角(提名) 山姆·洛克威尔
  最佳女配角(提名) 艾米·亚当斯

Video
ID : 1
Format : AVC
Format/Info : Advanced Video Codec
Format profile : [email protected]
Format settings : CABAC / 5 Ref Frames
Format settings, CABAC : Yes
Format settings, ReFrames : 5 frames
Codec ID : V_MPEG4/ISO/AVC
Duration : 2 h 12 min
Bit rate : 4 601 kb/s
Width : 1 916 pixels
Height : 800 pixels
Display aspect ratio : 2.40:1
Frame rate mode : Constant
Frame rate : 23.976 (23976/1000) FPS
Color space : YUV
Chroma subsampling : 4:2:0
Bit depth : 8 bits
Scan type : Progressive
Bits/(Pixel*Frame) : 0.125
Stream size : 4.26 GiB (92%)
Title : Vice.2018.1080p.WEB-DL.DD5.1.H264-FGT
Language : English
Default : Yes
Forced : No
Color range : Limited
Color primaries : BT.709
Transfer characteristics : BT.709
Matrix coefficients : BT.709
Audio
ID : 2
Format : AC-3
Format/Info : Audio Coding 3
Commercial name : Dolby Digital
Codec ID : A_AC3
Duration : 2 h 12 min
Bit rate mode : Constant
Bit rate : 384 kb/s
Channel(s) : 6 channels
Channel layout : L R C LFE Ls Rs
Sampling rate : 48.0 kHz
Frame rate : 31.250 FPS (1536 SPF)
Bit depth : 16 bits
Compression mode : Lossy
Stream size : 364 MiB (8%)
Title : Vice.2018.1080p.WEB-DL.DD5.1.H264-FGT
Language : English
Service kind : Complete Main
Default : Yes
Forced : No
Menu
00:00:00.000 : en:Chapter 01
00:03:05.602 : en:Chapter 02
00:07:50.803 : en:Chapter 03
00:13:33.979 : en:Chapter 04
00:19:29.918 : en:Chapter 05
00:26:39.347 : en:Chapter 06
00:33:10.445 : en:Chapter 07
00:37:50.850 : en:Chapter 08
00:42:01.725 : en:Chapter 09
00:51:35.465 : en:Chapter 10
00:56:00.896 : en:Chapter 11
01:00:24.200 : en:Chapter 12
01:06:50.544 : en:Chapter 13
01:10:11.243 : en:Chapter 14
01:13:14.426 : en:Chapter 15
01:17:04.071 : en:Chapter 16
01:23:49.141 : en:Chapter 17
01:26:43.522 : en:Chapter 18
01:34:42.291 : en:Chapter 19
01:39:09.432 : en:Chapter 20
01:44:44.974 : en:Chapter 21
01:49:41.145 : en:Chapter 22
01:59:18.847 : en:Chapter 23
02:02:20.194 : en:Chapter 24





下载地址:
副总统/为副不仁 Vice.2018.1080p.WEB-DL.DD5.1.H264-FGT 4.61GB
您需要登录后才可以回帖 登录 | 立即注册

本版积分规则

快速回复 时时彩历史记录 返回列表
  • 事件 —频道 春城壹网 七彩云南 一网天下 2019-03-20
  • 董卿白岩松朱广权 看看央视主持人大学就读啥院系 2019-03-20
  • 摄艳|花开红树乱莺啼 白鹭相亲相爱嬉戏忙 2019-03-20
  • 做龙舟迎端午成博开展多样活动讲节日故事 2019-03-19
  • 习近平应约同俄罗斯总统普京通电话 2019-03-19
  • 永清万亩公园打造,升级空港都会生活 ——凤凰网房产北京 2019-03-18
  • 这三地网购官司占全国一半 90后买家更爱维权 2019-03-18
  • 载30吨发泡剂大货车高速路上起火 现场浓烟滚滚 2019-03-18
  • 2018年北京高考阅卷21万份 23日发布成绩 2019-03-18
  • 【专题】河北省无偿献血领导小组会议报道 2019-03-17
  • 黄山市今天将有一次大到暴雨 20日起梅雨到来 2019-03-17
  • 布小林--内蒙古频道--人民网 2019-03-17
  • 你们中了美国思维,中国思维却相反 2019-03-16
  • 新零售聚能创变 e栈多无人售货机获耀盛中国亿元融资 2019-03-16
  • 【学习时刻】参会专家盛小云:坚定文化自信,用高尚的作品引领社会风尚 2019-03-16
  • 561| 188| 884| 922| 529| 876| 614| 338| 308| 392|