...

本文来自

影视资源

时时彩技巧与攻略:影视资源

时时彩历史记录 www.ei26o.com.cn 订阅|关注 (38)

本站提供720p|1080p|4K 等超高清分辨率电影电视剧免费下载。

精选帖子

16万

主题

16万

帖子

50万

积分

网站编辑

Rank: 8Rank: 8

积分
501151

[超清电影] 阿卡普尔科奇遇记 Welcome.to.Acapulco.2019.1080p.WEB-DL.DD5.1.H264-FGT 3GB

[复制链接]
跳转到指定楼层
楼主
1600 99mp4 发表于 2019-3-12 17:07:37



◎译  名 阿卡普尔科奇遇记 / 亡命大乱炖 / 你好阿卡普尔科 / 在逃新郎(豆友译名) / 欢迎来到阿卡普尔科 / 进击的阿卡普尔科
◎片  名 Welcome to Acapulco
◎年  代 2018
◎产  地 美国 / 保加利亚 Bulgaria / 墨西哥 Mexico
◎类  别 喜剧 / 动作 / 惊悚
◎语  言 英语 / 西班牙语
◎上映日期 2019-03-12(美国)
◎IMDb链接 //www.imdb.com/title/tt6047374
◎久久MP4整理 //899mp4.com/
◎片  长 88分钟
◎导  演 吉尔莫·伊万 Guillermo Iván
◎编  剧 Garry Charles / Loris Curci / Magarditch Halvadjian
◎主  演 威廉·鲍德温 William Baldwin
      迈克尔·马德森 Michael Madsen
      布拉德利·格雷格 Bradley Gregg



◎简  介  

  When Matt Booth sets off to meet his fiance for a foreign wedding he couldn't have imagined the dangerous world he was about to step into. Betrayed and set up, Matt finds himself on the run from the CIA and hired mercenaries, all looking for a package that he has supposedly smuggled through customs. Hunted on all sides, Matt is aided by Agent Adriana Vasquez, a femme fatale with orders of her own to follow.

Video
ID : 1
Format : AVC
Format/Info : Advanced Video Codec
Format profile : [email protected]
Format settings : CABAC / 5 Ref Frames
Format settings, CABAC : Yes
Format settings, ReFrames : 5 frames
Codec ID : V_MPEG4/ISO/AVC
Duration : 1 h 28 min
Bit rate : 4 550 kb/s
Width : 1 920 pixels
Height : 804 pixels
Display aspect ratio : 2.40:1
Frame rate mode : Constant
Frame rate : 23.976 (23976/1000) FPS
Color space : YUV
Chroma subsampling : 4:2:0
Bit depth : 8 bits
Scan type : Progressive
Bits/(Pixel*Frame) : 0.123
Stream size : 2.83 GiB (92%)
Title : Welcome.to.Acapulco.2019.1080p.WEB-DL.DD5.1.H264-FGT
Language : English
Default : Yes
Forced : No
Color range : Limited
Color primaries : BT.709
Transfer characteristics : BT.709
Matrix coefficients : BT.709
Audio
ID : 2
Format : AC-3
Format/Info : Audio Coding 3
Commercial name : Dolby Digital
Codec ID : A_AC3
Duration : 1 h 28 min
Bit rate mode : Constant
Bit rate : 384 kb/s
Channel(s) : 6 channels
Channel layout : L R C LFE Ls Rs
Sampling rate : 48.0 kHz
Frame rate : 31.250 FPS (1536 SPF)
Bit depth : 16 bits
Compression mode : Lossy
Delay relative to video : -42 ms
Stream size : 244 MiB (8%)
Title : Welcome.to.Acapulco.2019.1080p.WEB-DL.DD5.1.H264-FGT
Language : English
Service kind : Complete Main
Default : Yes
Forced : No
Menu
00:00:00.000 : en:Chapter 1
00:09:52.801 : en:Chapter 2
00:18:24.187 : en:Chapter 3
00:27:02.580 : en:Chapter 4
00:36:52.419 : en:Chapter 5
00:45:51.958 : en:Chapter 6
00:53:44.972 : en:Chapter 7
01:03:03.030 : en:Chapter 8
01:11:51.892 : en:Chapter 9
01:20:33.330 : en:Chapter 10
01:24:37.282 : en:Chapter 11





下载地址:
阿卡普尔科奇遇记 Welcome.to.Acapulco.2019.1080p.WEB-DL.DD5.1.H264-FGT 3GB
您需要登录后才可以回帖 登录 | 立即注册

本版积分规则

快速回复 时时彩历史记录 返回列表
  • 事件 —频道 春城壹网 七彩云南 一网天下 2019-03-20
  • 董卿白岩松朱广权 看看央视主持人大学就读啥院系 2019-03-20
  • 摄艳|花开红树乱莺啼 白鹭相亲相爱嬉戏忙 2019-03-20
  • 做龙舟迎端午成博开展多样活动讲节日故事 2019-03-19
  • 习近平应约同俄罗斯总统普京通电话 2019-03-19
  • 永清万亩公园打造,升级空港都会生活 ——凤凰网房产北京 2019-03-18
  • 这三地网购官司占全国一半 90后买家更爱维权 2019-03-18
  • 载30吨发泡剂大货车高速路上起火 现场浓烟滚滚 2019-03-18
  • 2018年北京高考阅卷21万份 23日发布成绩 2019-03-18
  • 【专题】河北省无偿献血领导小组会议报道 2019-03-17
  • 黄山市今天将有一次大到暴雨 20日起梅雨到来 2019-03-17
  • 布小林--内蒙古频道--人民网 2019-03-17
  • 你们中了美国思维,中国思维却相反 2019-03-16
  • 新零售聚能创变 e栈多无人售货机获耀盛中国亿元融资 2019-03-16
  • 【学习时刻】参会专家盛小云:坚定文化自信,用高尚的作品引领社会风尚 2019-03-16
  • 65| 907| 468| 84| 147| 51| 620| 440| 460| 282|