本文来自

影视资源

时时彩网络平台:影视资源

时时彩历史记录 www.ei26o.com.cn 订阅|关注 (40)

本站提供720p|1080p|4K 等超高清分辨率电影电视剧免费下载。

精选帖子

16万

主题

16万

帖子

50万

积分

网站编辑

Rank: 8Rank: 8

积分
505352

[超清电影] 兵来将挡 Best.Defense.1984.1080p.AMZN.WEBRip.DDP2.0.x264-alfaHD 9.8GB

[复制链接]
跳转到指定楼层
楼主
2340 99mp4 发表于 2019-3-12 17:07:45



◎译  名 兵来将挡 / 最佳防卫
◎片  名 Best Defense
◎年  代 1984
◎产  地 美国
◎类  别 喜剧 / 战争
◎语  言 英语
◎上映日期 1984-07-20
◎IMDb评分 3.6/10 from 5099 users
◎IMDb链接 //www.imdb.com/title/tt0086955
◎久久MP4整理 //899mp4.com/
◎片  长 94 分钟
◎导  演 威拉德 赫依克 (Willard Huyck)
◎编  剧 格洛丽亚 卡茨 (Gloria Katz) / Robert Grossbach / 威拉德 赫依克 (Willard Huyck)
◎主  演 艾迪·墨菲 Eddie Murphy



◎简  介  

  杜德利摩尔饰演一名武器设计师,他无意间拾获一张蓝图,并将蓝图交给公司,很快便制造出一辆全新的坦克。坦克指挥官(艾迪墨菲饰)收到此新型坦克后,发现它每次都莫名其妙的横冲直撞,会不会是与那张新蓝图有关呢?

Video
ID : 1
Format : AVC
Format/Info : Advanced Video Codec
Format profile : [email protected]
Format settings : CABAC / 4 Ref Frames
Format settings, CABAC : Yes
Format settings, ReFrames : 4 frames
Codec ID : V_MPEG4/ISO/AVC
Duration : 1 h 33 min
Bit rate mode : Variable
Bit rate : 14.7 Mb/s
Maximum bit rate : 15.0 Mb/s
Width : 1 920 pixels
Height : 1 080 pixels
Display aspect ratio : 16:9
Frame rate mode : Constant
Frame rate : 23.976 (24000/1001) FPS
Color space : YUV
Chroma subsampling : 4:2:0
Bit depth : 8 bits
Scan type : Progressive
Bits/(Pixel*Frame) : 0.296
Stream size : 9.66 GiB (98%)
Writing library : x264 core 148 r2623 d5b2374
Encoding settings : cabac=1 / ref=4 / deblock=1:-1:-1 / analyse=0x3:0x133 / me=umh / subme=9 / psy=1 / psy_rd=1.00:0.15 / mixed_ref=1 / me_range=24 / chroma_me=1 / trellis=2 / 8x8dct=1 / cqm=0 / deadzone=21,11 / fast_pskip=1 / chroma_qp_offset=-3 / threads=34 / lookahead_threads=5 / sliced_threads=0 / nr=150 / decimate=1 / interlaced=0 / bluray_compat=0 / constrained_intra=0 / bframes=8 / b_pyramid=2 / b_adapt=2 / b_bias=0 / direct=3 / weightb=1 / open_gop=0 / weightp=2 / keyint=120 / keyint_min=61 / scenecut=0 / intra_refresh=0 / rc_lookahead=120 / rc=crf / mbtree=1 / crf=18.0 / qcomp=0.60 / qpmin=0 / qpmax=69 / qpstep=4 / vbv_maxrate=15000 / vbv_bufsize=31250 / crf_max=0.0 / nal_hrd=vbr / filler=0 / ip_ratio=1.40 / aq=3:1.00
Default : Yes
Forced : No
Color range : Limited
Color primaries : BT.709
Transfer characteristics : BT.709
Matrix coefficients : BT.709
Audio
ID : 2
Format : E-AC-3
Format/Info : Enhanced AC-3
Commercial name : Dolby Digital Plus
Codec ID : A_EAC3
Duration : 1 h 33 min
Bit rate mode : Constant
Bit rate : 224 kb/s
Channel(s) : 2 channels
Channel layout : L R
Sampling rate : 48.0 kHz
Frame rate : 31.250 FPS (1536 SPF)
Compression mode : Lossy
Stream size : 151 MiB (1%)
Language : English
Service kind : Complete Main
Default : Yes
Forced : No
Text #1
ID : 3
Format : UTF-8
Codec ID : S_TEXT/UTF8
Codec ID/Info : UTF-8 Plain Text
Duration : 1 h 29 min
Bit rate : 59 b/s
Count of elements : 1754
Stream size : 39.1 KiB (0%)
Language : English
Default : No
Forced : No
Text #2
ID : 4
Format : UTF-8
Codec ID : S_TEXT/UTF8
Codec ID/Info : UTF-8 Plain Text
Duration : 1 h 30 min
Bit rate : 59 b/s
Count of elements : 1789
Stream size : 39.7 KiB (0%)
Title : SDH
Language : English
Default : No
Forced : No





下载地址:
兵来将挡 Best.Defense.1984.1080p.AMZN.WEBRip.DDP2.0.x264-alfaHD 9.8GB
您需要登录后才可以回帖 登录 | 立即注册

本版积分规则

快速回复 时时彩历史记录 返回列表
  • 浙江长兴大队开展取暖器“引火”实验 敲响冬季防火警钟 2019-05-20
  • 浙江省网络文明公益宣传创意作品展示 2019-05-20
  • 19种产品不再实施强制性产品认证 2019-05-20
  • 回复@艾鸣1:你看强坛除了小寻子这种跟你一样老蚕的人之外,有人会有人敢支持你么? 2019-05-20
  • 那你就写个帖子驳呀!告诉你,我是普通老百姓就是错了也没有啥,你可是论坛“真理化身”呀! 2019-05-19
  • 北欧的千湖之国被选为2018全球最幸福国家 2019-05-19
  • 一镜到底绝密视频!10个故事,一个不一样的上合峰会 2019-05-19
  • 饮料-热门标签-华商生活 2019-05-19
  • 吉安市落实企业上市挂牌工作调度会召开 2019-05-18
  • 购彩成习惯 体彩大乐透又领走一个14万 2019-05-18
  • 2018年中央和国家机关青年龙舟赛在京举行 2019-05-18
  • 毛泽东说帝国主义都是纸老虎。是有社会基础的 2019-05-17
  • 医院每天“抢劫”病人几十万,这样的疯狂行为睡来遏制? 2019-05-17
  • 医者佛心 第二届海峡两岸佛医论坛 2019-05-17
  • ST海润逾期债务累计近27亿 高管大调整后集体降薪为保壳 2019-05-16
  • 31| 204| 838| 75| 142| 888| 266| 924| 807| 258|