...

本文来自

影视资源

北京pk10大小参考计划:影视资源

时时彩历史记录 www.ei26o.com.cn 订阅|关注 (38)

本站提供720p|1080p|4K 等超高清分辨率电影电视剧免费下载。

精选帖子

16万

主题

16万

帖子

50万

积分

网站编辑

Rank: 8Rank: 8

积分
501151

[超清电影] 007之金枪人 1974.INTERNAL.2160p.WEB.H265-DEFLATE 17.1GB

[复制链接]
跳转到指定楼层
楼主
590 99mp4 发表于 2019-3-12 17:08:34



◎译  名 007之金枪人 / 金枪人 / 铁金刚大战金枪客
◎片  名 The Man with the Golden Gun
◎年  代 1974
◎产  地 英国
◎类  别 动作 / 惊悚 / 冒险
◎语  言 英语 / 泰语
◎上映日期 1974-12-19
◎IMDb评分 6.8/10 from 85546 users
◎IMDb链接 //www.imdb.com/title/tt0071807
◎豆瓣评分 6.8/10 from 5126 users
◎豆瓣链接 https://movie.douban.com/subject/1293605/
◎久久MP4整理 //899mp4.com/
◎片  长 125 分钟
◎导  演 Guy Hamilton
◎编  剧 Richard Maibaum / Tom Mankiewicz / Ian Fleming
◎主  演 Roger Moore
      Christopher Lee
      Hervé Villechaize
      Britt Ekland
      Maud Adams



◎简  介  

  世界上又多了一个杀人不眨眼的冷血杀手,注定又将引起一场惊涛骇浪。绰号金枪人的职业杀手几乎百发百中,没有他完成不了的任务,由此成为世界各恐怖组织争相高酬聘请的对象。同一时间,英国军方为了取回可将太阳能95%转化的高效率太阳能转化器(万一这种厉害的武器落入恐怖分子手中后果不堪设想),007邦德(罗杰?摩尔 Roger Moore 饰)奉命出动了??植雷橹俗柚?07的行动,高薪聘请了金枪人来对付007。最终鹿死谁手,007又能否顺利完成任务?

Video
ID : 1
Format : HEVC
Format/Info : High Efficiency Video Coding
Format profile : Main [email protected]@Main
Codec ID : V_MPEGH/ISO/HEVC
Duration : 2 h 5 min
Width : 3 840 pixels
Height : 2 076 pixels
Original height : 2 160 pixels
Display aspect ratio : 16:9
Frame rate mode : Constant
Frame rate : 23.976 (23976/1000) FPS
Color space : YUV
Chroma subsampling : 4:2:0
Bit depth : 10 bits
Language : English
Default : Yes
Forced : No
Color range : Limited
Color primaries : BT.709
Transfer characteristics : BT.709
Matrix coefficients : BT.709
Audio #1
ID : 2
Format : DTS XLL
Format/Info : Digital Theater Systems
Commercial name : DTS-HD Master Audio
Codec ID : A_DTS
Duration : 2 h 5 min
Bit rate mode : Variable
Channel(s) : 6 channels
Channel layout : C L R Ls Rs LFE
Sampling rate : 48.0 kHz
Frame rate : 93.750 FPS (512 SPF)
Bit depth : 24 bits
Compression mode : Lossless
Delay relative to video : 5 s 631 ms
Language : English
Default : Yes
Forced : No
Audio #2
ID : 3
Format : AC-3
Format/Info : Audio Coding 3
Commercial name : Dolby Digital
Codec ID : A_AC3
Duration : 2 h 5 min
Bit rate mode : Constant
Bit rate : 224 kb/s
Channel(s) : 2 channels
Channel layout : L R
Sampling rate : 48.0 kHz
Frame rate : 31.250 FPS (1536 SPF)
Bit depth : 16 bits
Compression mode : Lossy
Delay relative to video : 5 s 631 ms
Stream size : 201 MiB (1%)
Title : Commentary with Roger Moore
Language : English
Service kind : Complete Main
Default : No
Forced : No
Audio #3
ID : 4
Format : AC-3
Format/Info : Audio Coding 3
Commercial name : Dolby Digital
Codec ID : A_AC3
Duration : 2 h 5 min
Bit rate mode : Constant
Bit rate : 224 kb/s
Channel(s) : 2 channels
Channel layout : L R
Sampling rate : 48.0 kHz
Frame rate : 31.250 FPS (1536 SPF)
Bit depth : 16 bits
Compression mode : Lossy
Delay relative to video : 5 s 631 ms
Stream size : 201 MiB (1%)
Title : Commentary with Director Guy Hamilton and members of the cast and crew
Language : English
Service kind : Complete Main
Default : No
Forced : No
Text #1
ID : 18
Format : UTF-8
Codec ID : S_TEXT/UTF8
Codec ID/Info : UTF-8 Plain Text
Title : English
Language : English
Default : No
Forced : No
Text #2
ID : 19
Format : UTF-8
Codec ID : S_TEXT/UTF8
Codec ID/Info : UTF-8 Plain Text
Title : English (SDH)
Language : English
Default : No
Forced : No
Text #3
ID : 20
Format : PGS
Codec ID : S_HDMV/PGS
Codec ID/Info : Picture based subtitle format used on BDs/HD-DVDs
Title : English (SDH)
Language : English
Default : No
Forced : No
Text #4
ID : 21
Format : PGS
Codec ID : S_HDMV/PGS
Codec ID/Info : Picture based subtitle format used on BDs/HD-DVDs
Title : Czech
Language : Czech
Default : No
Forced : No
Text #5
ID : 22
Format : PGS
Codec ID : S_HDMV/PGS
Codec ID/Info : Picture based subtitle format used on BDs/HD-DVDs
Title : Danish
Language : Danish
Default : No
Forced : No
Text #6
ID : 23
Format : PGS
Codec ID : S_HDMV/PGS
Codec ID/Info : Picture based subtitle format used on BDs/HD-DVDs
Title : Dutch
Language : Dutch
Default : No
Forced : No
Text #7
ID : 24
Format : PGS
Codec ID : S_HDMV/PGS
Codec ID/Info : Picture based subtitle format used on BDs/HD-DVDs
Title : Finnish
Language : Finnish
Default : No
Forced : No
Text #8
ID : 25
Format : PGS
Codec ID : S_HDMV/PGS
Codec ID/Info : Picture based subtitle format used on BDs/HD-DVDs
Title : French
Language : French
Default : No
Forced : No
Text #9
ID : 26
Format : PGS
Codec ID : S_HDMV/PGS
Codec ID/Info : Picture based subtitle format used on BDs/HD-DVDs
Title : German
Language : German
Default : No
Forced : No
Text #10
ID : 27
Format : PGS
Codec ID : S_HDMV/PGS
Codec ID/Info : Picture based subtitle format used on BDs/HD-DVDs
Title : Norwegian
Language : Norwegian
Default : No
Forced : No
Text #11
ID : 28
Format : PGS
Codec ID : S_HDMV/PGS
Codec ID/Info : Picture based subtitle format used on BDs/HD-DVDs
Title : Swedish
Language : Swedish
Default : No
Forced : No
Text #12
ID : 29
Format : PGS
Codec ID : S_HDMV/PGS
Codec ID/Info : Picture based subtitle format used on BDs/HD-DVDs
Title : Commentary with Roger Moore
Language : English
Default : No
Forced : No
Text #13
ID : 30
Format : PGS
Codec ID : S_HDMV/PGS
Codec ID/Info : Picture based subtitle format used on BDs/HD-DVDs
Title : Commentary with Director Guy Hamilton and members of the cast and crew
Language : English
Default : No
Forced : No
Menu
00:00:00.000 : en:Chapter 01
00:08:18.081 : en:Chapter 02
00:10:49.816 : en:Chapter 03
00:14:58.773 : en:Chapter 04
00:19:58.406 : en:Chapter 05
00:21:31.874 : en:Chapter 06
00:24:56.745 : en:Chapter 07
00:28:03.140 : en:Chapter 08
00:33:17.996 : en:Chapter 09
00:36:42.575 : en:Chapter 10
00:39:41.129 : en:Chapter 11
00:44:04.267 : en:Chapter 12
00:48:27.988 : en:Chapter 13
00:51:51.608 : en:Chapter 14
00:56:46.278 : en:Chapter 15
00:58:43.311 : en:Chapter 16
01:03:23.800 : en:Chapter 17
01:05:25.255 : en:Chapter 18
01:07:53.486 : en:Chapter 19
01:14:53.197 : en:Chapter 20
01:19:22.800 : en:Chapter 21
01:27:17.232 : en:Chapter 22
01:31:06.670 : en:Chapter 23
01:33:48.164 : en:Chapter 24
01:36:57.395 : en:Chapter 25
01:42:02.450 : en:Chapter 26
01:45:31.242 : en:Chapter 27
01:48:30.212 : en:Chapter 28
01:52:38.001 : en:Chapter 29
01:58:54.627 : en:Chapter 30
02:01:59.729 : en:Chapter 31
02:03:41.414 : en:Chapter 32




下载地址:
007之金枪人  1974.INTERNAL.2160p.WEB.H265-DEFLATE 17.1GB
您需要登录后才可以回帖 登录 | 立即注册

本版积分规则

快速回复 时时彩历史记录 返回列表
  • 事件 —频道 春城壹网 七彩云南 一网天下 2019-03-20
  • 董卿白岩松朱广权 看看央视主持人大学就读啥院系 2019-03-20
  • 摄艳|花开红树乱莺啼 白鹭相亲相爱嬉戏忙 2019-03-20
  • 做龙舟迎端午成博开展多样活动讲节日故事 2019-03-19
  • 习近平应约同俄罗斯总统普京通电话 2019-03-19
  • 永清万亩公园打造,升级空港都会生活 ——凤凰网房产北京 2019-03-18
  • 这三地网购官司占全国一半 90后买家更爱维权 2019-03-18
  • 载30吨发泡剂大货车高速路上起火 现场浓烟滚滚 2019-03-18
  • 2018年北京高考阅卷21万份 23日发布成绩 2019-03-18
  • 【专题】河北省无偿献血领导小组会议报道 2019-03-17
  • 黄山市今天将有一次大到暴雨 20日起梅雨到来 2019-03-17
  • 布小林--内蒙古频道--人民网 2019-03-17
  • 你们中了美国思维,中国思维却相反 2019-03-16
  • 新零售聚能创变 e栈多无人售货机获耀盛中国亿元融资 2019-03-16
  • 【学习时刻】参会专家盛小云:坚定文化自信,用高尚的作品引领社会风尚 2019-03-16
  • 686| 215| 398| 163| 653| 127| 590| 411| 990| 697|