...

本文来自

影视资源

时时彩进一退二投注法:影视资源

时时彩历史记录 www.ei26o.com.cn 订阅|关注 (38)

本站提供720p|1080p|4K 等超高清分辨率电影电视剧免费下载。

精选帖子

16万

主题

16万

帖子

50万

积分

网站编辑

Rank: 8Rank: 8

积分
501260

[超清电影] 007之金手指 Goldfinger.1964.INTERNAL.2160p.WEB.H265-DEFLATE 14.3GB

[复制链接]
跳转到指定楼层
楼主
720 99mp4 发表于 2019-3-12 17:08:36



◎译  名 007之金手指 / 金手指 / 铁金刚大战金手指
◎片  名 Goldfinger
◎年  代 1964
◎产  地 英国
◎类  别 动作 / 惊悚 / 冒险
◎语  言 英语 / 汉语普通话 / 西班牙语 / 粤语
◎上映日期 1964-09-17
◎IMDb评分 7.7/10 from 157156 users
◎IMDb链接 //www.imdb.com/title/tt0058150
◎豆瓣评分 7.1/10 from 10167 users
◎豆瓣链接 https://movie.douban.com/subject/1293828/
◎片  长 110 分钟
◎导  演 Guy Hamilton
◎编  剧 Richard Maibaum / Paul Dehn / Ian Fleming
◎主  演 Sean Connery
      Honor Blackman
      Gert Fr?be
      Shirley Eaton
      Tania Mallet
      Harold Sakata


◎标  签 007 | 动作 | 英国 | 间谍 | 特工 | 1964 | 美国 | 007系列

◎简  介  

  世界各国突然出现黄金大量流失的现象,而黄金的黑市交易却十分兴盛。英国情报部怀疑世界巨富金手指参与了黑市黄金交易,他在日内瓦拥有一座大银行,各国都有大量黄金储备在那里。007邦德(肖恩?康纳利 Sean Connery 饰)开始展开对金手指的调查。
邦德一路跟踪金手指到了日内瓦,发现了他往外运黄金的秘密,他通过用黄金造车身的方法重熔得到金块。邦德被金手指的手下发现了,他们抓住了邦德。邦德在意外中还得知了金手指即将实施的一个惊天计划:他策划用飞机撒播毒气使银行的驻军死亡,然后炸开银行,利用一枚小型核弹致使世界各国保存的黄金受到辐射污染而不能进入流通,这样黑市的黄金交易将获得十倍以上的巨额利润!邦德虽然得知了金手指的全盘计划,可是人在牢中,无法通知外界。最终金手指的阴谋能否得逞?

◎获奖情况  

  第37届奥斯卡金像奖(1965)
  最佳音效 Norman Wanstall

Video
ID : 1
Format : HEVC
Format/Info : High Efficiency Video Coding
Format profile : Main [email protected]@Main
Codec ID : V_MPEGH/ISO/HEVC
Duration : 1 h 50 min
Width : 3 600 pixels
Original width : 3 840 pixels
Height : 2 160 pixels
Display aspect ratio : 16:9
Frame rate mode : Constant
Frame rate : 23.976 (23976/1000) FPS
Color space : YUV
Chroma subsampling : 4:2:0
Bit depth : 10 bits
Language : English
Default : Yes
Forced : No
Color range : Limited
Color primaries : BT.709
Transfer characteristics : BT.709
Matrix coefficients : BT.709
Audio #1
ID : 2
Format : DTS XLL
Format/Info : Digital Theater Systems
Commercial name : DTS-HD Master Audio
Codec ID : A_DTS
Duration : 1 h 50 min
Bit rate mode : Variable
Channel(s) : 6 channels
Channel layout : C L R Ls Rs LFE
Sampling rate : 48.0 kHz
Frame rate : 93.750 FPS (512 SPF)
Bit depth : 24 bits
Compression mode : Lossless
Delay relative to video : 4 s 963 ms
Language : English
Default : Yes
Forced : No
Audio #2
ID : 3
Format : AC-3
Format/Info : Audio Coding 3
Commercial name : Dolby Digital
Codec ID : A_AC3
Duration : 1 h 50 min
Bit rate mode : Constant
Bit rate : 224 kb/s
Channel(s) : 2 channels
Channel layout : L R
Sampling rate : 48.0 kHz
Frame rate : 31.250 FPS (1536 SPF)
Bit depth : 16 bits
Compression mode : Lossy
Delay relative to video : 4 s 963 ms
Stream size : 176 MiB (1%)
Title : Commentary with Director Guy Hamilton
Language : English
Service kind : Complete Main
Default : No
Forced : No
Audio #3
ID : 4
Format : AC-3
Format/Info : Audio Coding 3
Commercial name : Dolby Digital
Codec ID : A_AC3
Duration : 1 h 50 min
Bit rate mode : Constant
Bit rate : 224 kb/s
Channel(s) : 2 channels
Channel layout : L R
Sampling rate : 48.0 kHz
Frame rate : 31.250 FPS (1536 SPF)
Bit depth : 16 bits
Compression mode : Lossy
Delay relative to video : 4 s 963 ms
Stream size : 176 MiB (1%)
Title : Commentary with the cast and crew
Language : English
Service kind : Complete Main
Default : No
Forced : No
Text #1
ID : 18
Format : UTF-8
Codec ID : S_TEXT/UTF8
Codec ID/Info : UTF-8 Plain Text
Title : English
Language : English
Default : No
Forced : No
Text #2
ID : 19
Format : UTF-8
Codec ID : S_TEXT/UTF8
Codec ID/Info : UTF-8 Plain Text
Title : English (SDH)
Language : English
Default : No
Forced : No
Text #3
ID : 20
Format : PGS
Codec ID : S_HDMV/PGS
Codec ID/Info : Picture based subtitle format used on BDs/HD-DVDs
Title : English (SDH)
Language : English
Default : No
Forced : No
Text #4
ID : 21
Format : PGS
Codec ID : S_HDMV/PGS
Codec ID/Info : Picture based subtitle format used on BDs/HD-DVDs
Title : Czech
Language : Czech
Default : No
Forced : No
Text #5
ID : 22
Format : PGS
Codec ID : S_HDMV/PGS
Codec ID/Info : Picture based subtitle format used on BDs/HD-DVDs
Title : Danish
Language : Danish
Default : No
Forced : No
Text #6
ID : 23
Format : PGS
Codec ID : S_HDMV/PGS
Codec ID/Info : Picture based subtitle format used on BDs/HD-DVDs
Title : Dutch
Language : Dutch
Default : No
Forced : No
Text #7
ID : 24
Format : PGS
Codec ID : S_HDMV/PGS
Codec ID/Info : Picture based subtitle format used on BDs/HD-DVDs
Title : Finnish
Language : Finnish
Default : No
Forced : No
Text #8
ID : 25
Format : PGS
Codec ID : S_HDMV/PGS
Codec ID/Info : Picture based subtitle format used on BDs/HD-DVDs
Title : French
Language : French
Default : No
Forced : No
Text #9
ID : 26
Format : PGS
Codec ID : S_HDMV/PGS
Codec ID/Info : Picture based subtitle format used on BDs/HD-DVDs
Title : German
Language : German
Default : No
Forced : No
Text #10
ID : 27
Format : PGS
Codec ID : S_HDMV/PGS
Codec ID/Info : Picture based subtitle format used on BDs/HD-DVDs
Title : Norwegian
Language : Norwegian
Default : No
Forced : No
Text #11
ID : 28
Format : PGS
Codec ID : S_HDMV/PGS
Codec ID/Info : Picture based subtitle format used on BDs/HD-DVDs
Title : Swedish
Language : Swedish
Default : No
Forced : No
Text #12
ID : 29
Format : PGS
Codec ID : S_HDMV/PGS
Codec ID/Info : Picture based subtitle format used on BDs/HD-DVDs
Title : Commentary with Director Guy Hamilton
Language : English
Default : No
Forced : No
Text #13
ID : 30
Format : PGS
Codec ID : S_HDMV/PGS
Codec ID/Info : Picture based subtitle format used on BDs/HD-DVDs
Title : Commentary with the cast and crew
Language : English
Default : No
Forced : No
Menu
00:00:00.000 : en:Chapter 01
00:03:19.199 : en:Chapter 02
00:05:02.677 : en:Chapter 03
00:07:49.219 : en:Chapter 04
00:08:53.116 : en:Chapter 05
00:09:56.596 : en:Chapter 06
00:11:34.736 : en:Chapter 07
00:15:55.079 : en:Chapter 08
00:17:56.951 : en:Chapter 09
00:22:39.108 : en:Chapter 10
00:25:18.559 : en:Chapter 11
00:31:25.634 : en:Chapter 12
00:33:37.224 : en:Chapter 13
00:36:41.366 : en:Chapter 14
00:40:41.522 : en:Chapter 15
00:42:59.660 : en:Chapter 16
00:47:48.574 : en:Chapter 17
00:50:11.800 : en:Chapter 18
00:54:09.121 : en:Chapter 19
00:56:34.182 : en:Chapter 20
01:00:12.567 : en:Chapter 21
01:02:56.272 : en:Chapter 22
01:04:45.215 : en:Chapter 23
01:06:47.253 : en:Chapter 24
01:09:50.269 : en:Chapter 25
01:13:04.755 : en:Chapter 26
01:14:44.939 : en:Chapter 27
01:20:40.836 : en:Chapter 28
01:25:01.138 : en:Chapter 29
01:27:53.852 : en:Chapter 30
01:38:00.583 : en:Chapter 31
01:45:29.532 : en:Chapter 32





下载地址:
007之金手指 Goldfinger.1964.INTERNAL.2160p.WEB.H265-DEFLATE 14.3GB
您需要登录后才可以回帖 登录 | 立即注册

本版积分规则

快速回复 时时彩历史记录 返回列表
  • 离开散热谈性能的笔记本都是耍流氓 2019-03-21
  • 光是一个梨子的滋味就改变了方向,说讲事实摆道理,就是要你按他的指挥棒转,属于忽悠网友的口实 2019-03-21
  • 《国家人文历史》杂志社荣膺“中国妇女儿童慈善奖” 2019-03-21
  • 沁园春 春色—野夫.blog的博客—强国博客—人民网 2019-03-21
  • 中国瓦文化文章中国国家地理网 2019-03-21
  • 事件 —频道 春城壹网 七彩云南 一网天下 2019-03-20
  • 董卿白岩松朱广权 看看央视主持人大学就读啥院系 2019-03-20
  • 摄艳|花开红树乱莺啼 白鹭相亲相爱嬉戏忙 2019-03-20
  • 做龙舟迎端午成博开展多样活动讲节日故事 2019-03-19
  • 习近平应约同俄罗斯总统普京通电话 2019-03-19
  • 永清万亩公园打造,升级空港都会生活 ——凤凰网房产北京 2019-03-18
  • 这三地网购官司占全国一半 90后买家更爱维权 2019-03-18
  • 载30吨发泡剂大货车高速路上起火 现场浓烟滚滚 2019-03-18
  • 2018年北京高考阅卷21万份 23日发布成绩 2019-03-18
  • 【专题】河北省无偿献血领导小组会议报道 2019-03-17
  • 875| 555| 362| 188| 718| 784| 625| 364| 647| 965|